Section 377 Season 2 ULLU Web Series All Episodes Free Download 720p HD WEB-DL Quality Encoded In x264 With English Subtitles.

Section 377 Season 2 Ullu Web Series Download 720p HD + ESubs

Details Of Full Length Free Videos

Title: Section 377 Season 2 [ULLU Originals] Genre: Drama | Thriller
Release Year: 2019
Language: Hindi
Quality: 720p WEB-DL x264
Audio: AC3
Format: MKV
Size: 2.8-GB

IMDb | ULLU

Synopsis

The journey of a Homophobic man ducking & dodging through the days & sleeping with one eye open in the night because of his gay cousin & his boyfriend in the same house. His journey of sweet revelation & funny incidents form the crux of the story that brings to the forefront the transparent thread that binds two people irrespective of their gender.

MKV File Details

MKV File Details

General
Complete name :Section 377 Season 02 Complete (2019) Hindi Ullu Originals 720p WEB-DL x264 AC3 2.7GB -1337xHD.mkv
Format : Matroska
Format version : Version 4
File size : 2.75 GiB
Duration : 3 h 25 min
Overall bit rate : 1 910 kb/s
Movie name : www.HDFilmBoss.cc
Encoded date : UTC 2019-01-19 05:51:56
Writing application : mkvmerge v30.1.0 (‘Forever And More’) 64-bit
Writing library : libebml v1.3.6 + libmatroska v1.4.9

Video
ID : 1
Format : AVC
Format/Info : Advanced Video Codec
Format profile : Baseline@L3.1
Format settings : 3 Ref Frames
Format settings, CABAC : No
Format settings, RefFrames : 3 frames
Codec ID : V_MPEG4/ISO/AVC
Duration : 3 h 25 min
Bit rate : 1 800 kb/s
Width : 1 280 pixels
Height : 720 pixels
Display aspect ratio : 16:9
Frame rate mode : Constant
Frame rate : 25.000 FPS
Color space : YUV
Chroma subsampling : 4:2:0
Bit depth : 8 bits
Scan type : Progressive
Bits/(Pixel*Frame) : 0.078
Stream size : 2.56 GiB (93%)
Title : www.1337xHD.Com
Writing library : x264 core 157 r2935 545de2f
Default : Yes
Forced : No

Audio
ID : 2
Format : AAC LC
Format/Info : Advanced Audio Codec Low Complexity
Codec ID : A_AAC-2
Duration : 3 h 25 min
Bit rate : 128 kb/s
Channel(s) : 2 channels
Channel layout : L R
Sampling rate : 48.0 kHz
Frame rate : 46.875 FPS (1024 SPF)
Compression mode : Lossy
Stream size : 189 MiB (7%)
Language : Hindi
Default : Yes
Forced : No

Images, Screenshots Of Full Episodes

Screenshots/Images Of Section 377 Season 2 Episodes 720p WEB-DL x264 + ESubs

Section 377 Season 2 Ullu Web Series Download 720p HD + ESubs

Watch The Full HD 720p, 1080p Movie Trailers

Watch Section 377 Season 2 Trailer

Free Download Section 377 Season 2 Full Episodes 720p HD + ESubs From Below

Free Download Direct Links HD

Direct Links For Premium Users

If you are the member of this site then enter your login details and Enjoy Direct Links

Leave a Reply

Your email address will not be published. Required fields are marked *

Check Also

Damaged Season 1 – Complete [Updated]

Damaged Web Series Download All Episodes Free In Hindi 720p HD WEB-DL Quality Encoded In x…